<?xml version="1.0" standalone="no"?>
<!DOCTYPE svg PUBLIC "-//W3C//DTD SVG 1.1//EN" "http://www.w3.org/Graphics/SVG/1.1/DTD/svg11.dtd" >
<svg xmlns="http://www.w3.org/2000/svg">
<metadata>Generated by IcoMoon</metadata>
<defs>
<font id="theme-icons" horiz-adv-x="1024">
<font-face units-per-em="1024" ascent="960" descent="-64" />
<missing-glyph horiz-adv-x="1024" />
<glyph unicode="&#x20;" horiz-adv-x="512" d="" />
<glyph unicode="&#xe900;" glyph-name="runner" d="M618.596 148.938v-213.193l-106.596 106.575zM630.44 344.364l153.973-151.011-153.973-151.011zM369.871 285.144l-153.973-153.973v153.973zM618.596 516.103v-302.023h-302.023zM808.101 729.296l-302.023-302.023v302.023zM488.311 729.296v-151.011l-153.973-151.011v151.011c51.339 50.351 102.633 100.659 153.973 151.011zM594.908 960.255l106.596-106.596-106.596-106.596-106.596 106.596z" />
<glyph unicode="&#xe901;" glyph-name="arrow-left" d="M1024-64l-498.789 512 498.789 512h-521.947l-502.053-512 502.053-512z" />
<glyph unicode="&#xe902;" glyph-name="arrow-right" d="M0 960l498.789-512-498.789-512h521.947l502.053 512-502.053 512z" />
<glyph unicode="&#xe903;" glyph-name="arrow-top" d="M0-64l512 498.789 512-498.789v521.947l-512 502.053-512-502.053z" />
<glyph unicode="&#xe904;" glyph-name="shopping-bag" d="M721.813 666.906v81.918c0 116.199-93.882 211.262-209.759 211.262s-210.296-95.062-210.296-211.262v-81.918h-122.851c-19.849 0-36.48-15.075-39.162-34.495l-84.762-648.215c-3.755-24.195 13.412-48.282 38.626-48.282h836.89c25.75 0 41.845 24.195 38.626 48.175l-84.762 648.375c-2.785 19.594-19.447 34.495-39.591 34.495-0.038 0-0.076 0-0.114 0h-122.845zM381.156 543.68v43.561h262.333v-43.615c0-22.102 17.703-39.806 39.699-39.806 21.459 0 38.626 17.81 38.626 39.806v43.615h88.517l75.106-571.768h-747.3l75.106 571.768h88.517v-43.615c0-21.925 17.774-39.699 39.699-39.699s39.699 17.774 39.699 39.699v0zM381.156 748.825c-0.001 0.159-0.001 0.348-0.001 0.536 0 72.336 58.58 130.991 130.888 131.113h0.012c72.542-0.304 131.252-59.090 131.435-131.632v-81.936h-262.333v81.918z" />
<glyph unicode="&#xe905;" glyph-name="side-menu" d="M538.947 97.684v-161.684h-538.947v161.684h538.947zM862.316 528.842v-161.684h-862.316v161.684h862.316zM1239.579 960v-161.684h-1239.579v161.684h1239.579z" />
<glyph unicode="&#xe906;" glyph-name="close" d="M258.555 852.148l253.446-267.544 253.446 267.544h258.792l-382.822-404.168 382.822-404.128h-258.792l-253.446 267.544-253.446-267.544h-258.753l382.822 404.128-382.862 404.168h258.832z" />
<glyph unicode="&#xe907;" glyph-name="arrow-bottom" d="M1024 960l-512-498.789-512 498.789v-521.947l512-502.053 512 502.053z" />
<glyph unicode="&#xe908;" glyph-name="quote-end" d="M536.94 767.82l-217.123-639.633h-319.817l173.112 639.633zM1024 767.82l-217.123-639.633h-316.882l170.178 639.633z" />
<glyph unicode="&#xe909;" glyph-name="quote-start" d="M363.828 128.187l173.112 639.633h-319.817l-217.123-639.633zM853.822 128.187l170.178 639.633h-316.882l-217.123-639.633z" />
<glyph unicode="&#xe90a;" glyph-name="kettlebell" d="M846.072 447.797l39.019 256.961c9.738 64.040-9.071 129.076-51.425 178.156-42.354 49.077-104.051 77.34-169.014 77.34h-305.349c-64.964 0-126.661-28.263-169.014-77.34s-61.162-114.181-51.425-178.156l38.818-255.633c-44.422-86.317-53.426-186.397-25.146-279.161s91.643-170.973 176.691-217.993c18.942-10.64 40.353-16.16 62.096-16.226h241.319c21.945 0.066 43.555 5.786 62.63 16.492 58.961 32.851 107.985 80.93 141.801 139.185 33.883 58.255 51.291 124.555 50.557 191.912-0.8 57.323-15.007 113.649-41.554 164.456zM527.278 653.838c-82.855 3.307-164.442-20.764-232.020-68.443l-21.348 139.859c-3.736 24.665 3.536 49.728 19.881 68.641 16.411 18.912 40.36 29.757 65.51 29.757h305.405c25.15 0 49.099-10.844 65.442-29.757 16.411-18.912 23.682-43.976 19.947-68.575l-21.481-140.654v-0.066c-58.838 42.124-128.819 66.195-201.332 69.235z" />
<glyph unicode="&#xe90b;" glyph-name="dumbbell" d="M1021.851 391.828l-78.498 127.435c-2.267 3.422-5.689 5.689-9.112 6.845-1.156 1.111-2.311 2.267-3.422 2.267l-157.044 75.12c-5.689 3.422-12.536 2.267-19.335 0l-169.526-88.766c-4.534-2.267-7.956-6.845-10.224-11.379l-1.2-9.112-104.679 54.629 30.715 85.343c2.267 5.689 1.156 12.536-2.267 18.225l-81.921 125.17c-2.267 3.422-4.534 5.689-7.956 6.845l-130.86 64.852c-5.689 2.267-12.536 3.422-18.225 0l-169.526-77.387c-4.534-2.267-9.112-6.845-11.379-11.379l-76.231-207.135c-2.311-6.8-1.159-13.646 3.378-19.335l89.877-121.746c2.267-2.267 4.534-4.534 6.845-5.689l128.596-69.431c3.422-1.156 6.845-2.267 10.224-2.267 3.422 0 6.845 1.156 9.112 2.267l167.262 84.187c4.534 2.267 7.956 5.689 10.224 10.224l102.412-53.473-35.294-92.189c-2.267-5.689-1.156-13.646 2.267-18.225l81.921-129.699c2.267-3.422 4.534-5.689 6.845-6.845l143.4-83.077c6.845-4.534 18.225-4.534 23.914-1.156l169.526 96.723c3.422 1.156 6.845 3.422 10.224 5.689l4.534 2.267c3.422 2.267 5.689 4.534 6.845 7.956l78.498 218.468c3.511 5.823 2.356 10.357 0.089 13.779zM44.36 549.975l69.431 187.756 152.457 69.431 88.766-44.361-127.435-60.318c-3.422-1.156-5.689-4.534-7.956-7.956l-81.921-204.824c-2.267-4.534-1.156-10.224 1.156-13.646l46.673-67.119-60.363 32.937zM746.487 429.379c-3.422-2.267-5.689-4.534-6.845-7.956l-83.077-232.112c-1.156-4.534-1.156-9.112 1.156-13.646l35.294-55.739-80.81 46.673-73.964 116.056 76.231 197.974 152.457 80.81 118.32-56.895z" />
<glyph unicode="&#xe90c;" glyph-name="hand-dumbbell" d="M53.728 491.32h11.474v-167.005h114.392v-101.314h134.67v268.315h39.049v-49.501c0-53.949 43.674-97.668 97.579-97.846v-306.924c0-4.492 3.647-8.139 8.139-8.139h105.985c4.492 0 8.184 3.647 8.184 8.139v306.97c53.904 0.178 97.579 43.898 97.579 97.846v49.501h39.049v-268.315h134.624v101.314h114.392l-0.044 166.959h11.474c29.666 0 53.727 24.061 53.727 53.727s-24.061 53.727-53.727 53.727h-11.474v167.051h-114.392v101.27h-134.624v-268.27h-39.049v31.666c-0.044 21.882-17.79 39.628-39.672 39.628-21.926 0-39.672-17.746-39.672-39.672 0 21.926-17.746 39.672-39.672 39.672s-39.672-17.746-39.672-39.672c0 21.926-17.746 39.672-39.672 39.672s-39.717-17.746-39.717-39.672c0 21.926-17.746 39.672-39.672 39.672s-39.672-17.746-39.672-39.672v-31.621h-39.049l-0.044 268.27h-134.624v-101.314h-114.392v-167.005l-11.474 0.044c-29.666 0-53.727-24.061-53.727-53.727s24.061-53.771 53.727-53.771zM938.52 745.539v-400.992h-94.11v400.992zM730.025 846.854h94.11v-603.532h-94.11zM199.885 846.854h94.11v-603.578h-94.11zM85.493 745.539h94.11v-400.992h-94.11z" />
<glyph unicode="&#xe90d;" glyph-name="arrow-top-right" d="M0 615.766l673.263-6.503 6.503-673.263 344.234 344.234-4.351 675.415-675.415 4.351z" />
<glyph unicode="&#xe90e;" glyph-name="hug" d="M515.37-64c-279.439 0.135-514.199 208.35-515.37 511.684 1.166 303.931 248.080 512.316 515.956 512.316 306.262 0 507.16-274.593 507.16-512.27 0-80.916 0-84.1-26.958-161.605l-604.176-0.314c-14.353 0.135-25.925 15.384-25.925 29.737s11.887 22.427 26.104 22.427l122.943 1.166v14.084l-201.794-0.045c-14.353 0-25.925 11.572-25.925 25.925s11.887 25.657 26.104 25.657h201.622l-0.135 17.134h-226.872c-14.353 0.135-25.925 11.706-25.925 26.104 0 14.353 11.706 25.925 25.925 25.925h227.009v17.313h-175.017c-14.353 0.135-25.925 11.706-25.925 26.104 0 14.353 11.887 25.208 25.925 24.939h305.814l0.045 18.255h-105.945c-13.77 0.135-25.073 11.706-25.073 26.104 0 14.353 13.322 25.342 25.073 25.342l104.778 0.314c77.821 0 130.258-70.062 130.258-121.014h41.758c-10.406 131.865-128.375 260.424-300.831 260.24-201.484 0.090-303.345-166.405-302.76-303.839-0.583-161.927 130.878-299.981 295.859-303.345 0 50.864 52.479 120.877 130.258 120.877l104.778-0.314c11.706 0 25.073-10.989 25.073-25.342s-11.303-25.925-25.073-26.104h-105.945v-18.301h308.191c14.084 0.314 25.925-10.541 25.925-24.939 0-14.353-11.572-25.925-25.925-26.104l-177.302 0.090v-17.313h229.34c14.219 0 25.925-11.572 25.925-25.925s-11.572-25.925-25.925-26.104h-229.203l-0.135-17.134h203.999c14.219 0 26.104-11.303 26.104-25.657s-11.572-25.925-25.925-25.925h-204.171v-16.417l125.274-1.166c14.219 0 26.104-8.074 26.104-22.426s-11.572-29.603-25.925-29.737z" />
<glyph unicode="&#xe90f;" glyph-name="plus" d="M652.595-50.737v355.499h371.405v278.528h-371.405v363.452h-281.19v-363.452h-371.405v-278.528h371.405v-355.499z" />
<glyph unicode="&#xe910;" glyph-name="minus" d="M1024 308.722v278.562h-1024v-278.562z" />
<glyph unicode="&#xe911;" glyph-name="arrow-down" d="M333.517-64.116l113.224 260.992-78.767-36.898c-59.054 352.056 196.96 600.745 482.552 800.138-273.275-152.648-657.339-455.423-583.458-812.442l-93.593 36.898z" />
<glyph unicode="&#xe912;" glyph-name="news" d="M669.526 221.434c0-22.663-24.462-36.878-44.171-25.663-104.311 59.494-204.188 104.635-299.637 135.42l-14.354 4.477c-0.277-21.878 0.369-43.709 1.893-65.449 1.246-18 2.815-31.709 5.169-45.786 1.939-11.677 3.738-20.586 9.37-46.895 10.339-48.372-26.493-93.234-78.879-102.096-3.554-0.6-7.154-1.016-10.801-1.293-52.571-3.692-99.742 30.37-103.157 79.11-0.277 3.6-0.277 7.2 0 10.801 1.893 26.816 2.446 35.909 2.769 47.771 0.323 14.215 0 28.062-1.293 46.016-2.585 36.832-7.708 73.48-15.37 109.942-0.785 3.692-0.831 7.339-0.277 10.847-30.74 4.477-61.895 7.938-93.465 10.293-15.416 1.154-27.324 13.985-27.324 29.448v177.237c0 15.693 12.277 28.663 27.97 29.494 94.849 5.031 194.086 24.278 297.745 57.694 103.896 33.508 203.633 78.556 299.223 135.149 19.709 11.677 44.588-2.538 44.588-25.385zM181.109 368.718l1.108-5.493c6.416-33.602 10.801-67.341 13.154-101.219 1.385-19.801 1.8-35.447 1.385-51.648-0.323-13.062-0.877-22.709-2.861-50.494-0.046-0.831-0.046-1.662 0-2.492 0.923-13.569 17.908-25.847 40.109-24.278 1.708 0.139 3.369 0.323 5.031 0.6 21.416 3.646 33.74 18.6 30.97 31.478-5.816 27.232-7.754 36.694-9.877 49.617-2.677 15.97-4.431 31.524-5.816 51.325-1.985 28.617-2.585 57.326-1.708 86.173-23.493 6.047-47.309 11.401-71.403 16.062zM796.959 362.164l2.169-2.077 109.204-113.589c11.308-11.724 10.939-30.416-0.831-41.724-10.985-10.616-28.154-10.985-39.556-1.293l-2.216 2.077-109.158 113.589c-11.308 11.77-10.939 30.463 0.785 41.771 11.031 10.57 28.154 10.939 39.602 1.246zM610.448 741.698c-85.71-47.033-174.554-85.434-266.635-115.112-60.048-19.385-118.89-34.247-176.457-44.494l0.046-151.112c60.233-10.524 119.032-25.063 176.41-43.571 85.849-27.694 174.744-66.279 266.636-115.804zM994.46 546.374c16.339 0 29.54-13.2 29.54-29.54 0-16.293-13.2-29.54-29.54-29.54h-157.528c-16.293 0-29.54 13.246-29.54 29.54 0 16.339 13.246 29.54 29.54 29.54zM907.503 813.848c11.77-11.308 12.139-30.002 0.831-41.771l-109.204-113.542c-11.308-11.77-30.002-12.139-41.771-0.831-11.724 11.308-12.093 30.002-0.785 41.771l109.158 113.542c11.308 11.77 30.048 12.139 41.771 0.831z" />
<glyph unicode="&#xe914;" glyph-name="target" d="M843.763 960l-128.402-128.466 28.783-107.888-244.555-244.489c-21.155 13.142-45.386 20.514-70.964 20.514-36.027 0-69.874-14.039-95.324-39.488-52.502-52.566-52.502-138.083 0-190.645 25.514-25.386 59.361-39.488 95.324-39.488 36.027 0 69.874 14.039 95.324 39.488 45.002 45.066 51.156 114.235 18.974 166.226l55.579 55.579c27.245-36.412 42.181-80.259 42.181-126.479 0-56.668-22.053-109.876-62.053-149.941-40.066-40.066-93.337-62.053-149.941-62.053h-0.064c-56.604 0-109.876 21.987-149.877 62.053-82.696 82.696-82.696 217.182 0 299.827 61.541 61.541 156.351 79.105 235.907 43.912l24.808 56.028c-102.568 45.45-224.747 22.693-304.11-56.604-106.543-106.543-106.543-280.003 0.064-386.558 53.207-53.271 123.21-79.939 193.205-79.939s140.005 26.668 193.337 80.003c51.604 51.604 80.003 120.197 80.003 193.205-0.064 62.695-21.091 122.056-59.745 170.197l66.861 66.861c122.12-144.301 115.388-361.040-20.514-497.004-143.339-143.275-376.548-143.339-519.831 0-143.275 143.275-143.275 376.482 0 519.831 117.248 117.184 299.236 141.48 442.766 58.912l30.578 53.207c-167.506 96.286-379.945 68.015-516.68-68.785-167.194-167.243-167.194-439.369 0-606.563 83.594-83.594 193.468-125.453 303.224-125.453 109.876 0 219.693 41.797 303.224 125.453 159.878 159.878 166.423 415.392 20.578 583.67l34.425 34.425 110.325-35.065 127.184 127.184-142.57 45.386z" />
<glyph unicode="&#xe915;" glyph-name="avocado" d="M953.317 42.763c25.986 0 47.077-21.095 47.077-46.982s-21.138-46.982-47.077-46.982c-25.939 0-47.077 21.095-47.077 46.982s21.138 46.982 47.077 46.982zM376.622 794.493c124.523 0 226.963-103.787 223.526-229.513-1.13-41.251 11.158-81.188 35.591-115.438 88.69-124.369 76.684-297.030-34.421-407.863-126.304-126.051-328.642-122.395-451.331 2.537-111.057 113.085-119.389 284.058-32.108 405.887 24.010 33.499 36.203 73.576 35.167 115.767-2.868 126.246 99.006 228.623 223.574 228.623zM70.614-15.968c0-31.339-47.077-31.339-47.077 0s47.077 31.339 47.077 0zM376.623 442.12c-97.351 0-176.536-84.288-176.536-187.933s79.18-187.933 176.536-187.933c97.351 0 176.536 84.288 176.536 187.933s-79.185 187.933-176.536 187.933zM376.623 418.63c84.359 0 152.998-73.765 152.998-164.443s-68.639-164.443-152.998-164.443-152.998 73.765-152.998 164.443c0 90.679 68.635 164.443 152.998 164.443zM706.253 935.445c124.049 0 226.867-103.415 223.43-229.513-1.13-41.251 11.158-81.188 35.591-115.438 88.743-124.452 76.834-297.632-35.21-408.607-69.997-69.347-165.239-100.874-259.959-90.020 66.332 110.932 65.909 257.609-15.206 371.356-21.42 30.069-32.247 65.026-31.212 101.156 2.628 94.526-49.293 179.191-128.195 222.886 31.492 87.996 116.607 148.182 210.763 148.182zM376.623 195.454c-12.993 0-23.539-10.524-23.539-23.492s10.546-23.492 23.539-23.492c12.993 0 23.539 10.524 23.539 23.492s-10.546 23.492-23.539 23.492zM306.006 265.929c-12.993 0-23.539-10.524-23.539-23.492s10.546-23.492 23.539-23.492c12.993 0 23.539 10.524 23.539 23.492s-10.546 23.492-23.539 23.492zM447.239 265.931c-12.993 0-23.539-10.524-23.539-23.492s10.546-23.492 23.539-23.492c12.993 0 23.539 10.524 23.539 23.492s-10.546 23.492-23.539 23.492zM376.623 336.406c-12.993 0-23.539-10.524-23.539-23.492s10.546-23.492 23.539-23.492c12.993 0 23.539 10.524 23.539 23.492s-10.546 23.492-23.539 23.492zM682.756 845.946c-6.215 0.138-11.816-4.89-11.912-11.607-0.093-6.484 5.132-11.793 11.63-11.887 77.819-0.842 141.562-64.745 142.079-142.408 0-1.738 0-3.43-0.047-5.074v0l0.037-8.408c0.924-25.126 9.212-49.224 24.21-70.24 24.857-34.861 37.991-76.019 37.991-118.961 0-6.484 5.273-11.746 11.769-11.746s11.769 5.262 11.769 11.746c0 47.871-14.641 93.726-42.37 132.582-13.652 19.17-20.526 41.44-19.867 64.415 2.543 93.548-73.208 170.553-165.291 171.591zM47.077 594.812c0-31.339-47.077-31.339-47.077 0s47.077 31.339 47.077 0zM70.614 841.469c19.49 0 35.309-15.786 35.309-35.238s-15.818-35.238-35.309-35.238c-19.444 0-35.309 15.786-35.309 35.238s15.818 35.238 35.309 35.238zM1012.166 853.215c0-31.339-47.077-31.339-47.077 0s47.077 31.339 47.077 0zM353.074 923.698c0-31.339-47.077-31.339-47.077 0s47.077 31.339 47.077 0z" />
<glyph unicode="&#xe916;" glyph-name="love-hands" d="M282.452 470.94c-21.193 2.39-41.19 8.274-58.843 17.653-3.54 2.391-7.079 4.735-9.424 7.079-7.080 7.033-11.769 16.458-12.965 25.881-1.148 14.113 3.54 28.226 12.965 37.65l269.523 270.677c-52.958 45.926-120.032 71.807-191.839 71.807-77.696 0-150.647-30.619-205.95-85.92s-85.92-128.259-85.92-205.95c0-77.696 30.617-150.647 85.92-205.95l74.151-74.151c3.493 15.308 10.573 29.421 22.341 41.19l100.033 100.033zM939.143 815.778c112.95-112.955 112.95-298.908 1.149-413.053l-395.447-395.447c-9.425-8.275-19.997-12.965-31.766-12.965s-23.537 4.735-31.766 12.965c-8.275 9.425-12.965 19.997-12.965 31.766s4.735 23.537 12.965 31.766l253.024 251.87c8.228 8.228 8.228 19.997 0 28.226-3.539 3.54-9.424 5.885-14.113 5.885s-10.573-2.345-14.113-5.885l-251.823-251.823c-9.425-8.275-19.997-12.965-31.766-12.965s-23.537 4.735-31.766 12.965c-8.275 9.425-12.965 19.997-12.965 31.766s4.689 22.342 12.919 30.617l251.823 251.823c3.54 3.539 5.885 9.424 5.885 14.113 0 5.884-2.345 10.573-5.885 14.113s-9.424 5.885-14.113 5.885c-5.884 0-10.573-2.345-14.113-5.885l-251.823-251.823c-16.505-17.653-44.73-17.653-62.383 0-17.653 16.505-17.653 44.73 0 62.383l251.823 251.823c8.228 8.228 8.228 19.997 0 28.226s-19.997 8.228-28.226 0l-251.823-251.823c-16.505-17.653-44.73-17.653-62.383 0-17.653 16.505-17.653 44.73 0 62.383l135.339 134.185c22.341 7.033 43.534 19.997 61.187 37.65l85.92 85.874c4.688 4.735 10.573 8.228 16.457 9.424l120.028 31.766c10.573 3.54 16.458 14.159 14.113 24.733-3.54 10.573-14.159 16.458-24.733 14.113l-120.028-31.766c-12.917-3.54-24.686-10.573-34.11-19.997l-84.724-84.724c-36.501-36.501-91.804-43.581-135.339-18.848-1.149 1.195-2.345 2.345-2.345 3.54s0 2.345 1.195 3.54l284.787 283.598c113.002 114.146 297.754 114.146 411.899 0z" />
<glyph unicode="&#xe917;" glyph-name="whistle" d="M862.358 664.165c23.834-9.558 46.629-22.795 67.304-40.27 20.155-16.955 38.151-37.111 52.467-60.945 3.199-5.318 5.838-10.078 8.998-15.356 16.436-30.752 26.513-63.584 30.752-96.977 4.239-34.432 2.12-68.903-6.358-102.255-8.478-32.872-22.274-64.664-42.389-92.218-19.076-26.513-42.909-49.828-72.063-67.823-4.759-2.64-8.998-5.318-13.797-7.958-27.033-14.836-56.186-23.314-84.779-26.513-29.672-3.199-59.866-0.52-88.498 7.438-2.64 0.52-5.838 1.6-8.478 2.64-2.64 1.080-5.318 1.6-8.478 3.199l-169.041 63.065c-21.715 7.958-42.389 19.596-61.465 33.911-14.836 11.117-29.153 24.394-41.35 39.75l-167.956-104.371c-4.239-2.64-9.558-3.199-14.316-1.080l-167.956 62.545c-3.719 1.6-6.358 4.239-7.958 7.438l-65.184 121.335c-3.719 6.878-1.6 15.916 5.318 20.155 159.48 99.096 329.596 215.151 492.28 305.763 27.033 14.836 56.186 23.314 84.779 26.513 29.672 3.199 59.866 0.52 88.498-7.438l8.478-2.64 8.478-3.199c56.186-20.675 118.172-41.35 172.758-64.104zM70.15 353.602l93.257-34.432 20.675-42.389-89.538 33.391-24.394 43.469zM657.29 639.769c4.239 2.64 8.998 5.318 13.237 7.958l1.080 0.52c25.434 13.237 51.947 21.715 78.94 24.914-23.834 8.998-47.708 18.035-71.023 27.033l-7.438 2.64-7.438 2.12c-24.914 6.878-50.868 9.558-76.821 6.878-24.914-2.64-50.348-10.078-73.662-22.795-157.36-86.899-323.76-200.829-478.48-297.287l55.627-103.859 134.050-49.828-46.629 87.419c-3.719 6.878-1.6 15.916 5.318 20.155l473.72 295.167zM609.063 232.829c-11.677 12.197-21.715 25.434-31.272 40.27-2.64 4.759-5.838 9.558-8.478 14.836-3.719 6.358-6.878 13.237-9.558 19.596l-0.52 1.080c-2.64 6.878-5.318 13.237-7.438 19.596-2.12 6.878-5.838 12.717-10.078 16.955s-9.558 7.958-15.356 10.078c-5.838 2.12-11.677 3.199-17.475 2.64-5.838-0.52-11.117-2.64-16.955-5.838l-44.51-27.553c11.117-13.797 23.834-25.954 37.111-36.031 16.436-12.717 34.992-22.795 54.066-29.672z" />
<glyph unicode="&#xe91a;" glyph-name="check" d="M174.453 525.669l-174.453-195.615 250.973-347.508 773.027 930.909-740.786-621.444z" />
<glyph unicode="&#xe91b;" glyph-name="list-dot" horiz-adv-x="640" d="M640.139 576c0-176.783-143.31-320.093-320.093-320.093s-320.093 143.31-320.093 320.093c0 176.783 143.31 320.093 320.093 320.093s320.093-143.31 320.093-320.093z" />
<glyph unicode="&#xe91c;" glyph-name="menu-sport" d="M889.439 367.12l-88.914-134.8h-800.763l88.914 134.8h800.763zM1024.239 663.679l-88.914-134.8h-800.763l88.914 134.8h800.763z" />
</font>
</defs>
</svg>
